  0
SECTION
  2
HEADER
  9
$ACADVER
  1
AC1009
  9
$INSBASE
 10
0.0
 20
0.0
 30
0.0
  9
$EXTMIN
 10
1.0000000000E+20
 20
1.0000000000E+20
 30
1.0000000000E+20
  9
$EXTMAX
 10
-1.0000000000E+20
 20
-1.0000000000E+20
 30
-1.0000000000E+20
  9
$LIMMIN
 10
0.0
 20
0.0
  9
$LIMMAX
 10
0.0
 20
0.0
  9
$ORTHOMODE
 70
         0
  9
$REGENMODE
 70
         1
  9
$FILLMODE
 70
         1
  9
$QTEXTMODE
 70
         0
  9
$MIRRTEXT
 70
         1
  9
$DRAGMODE
 70
         2
  9
$LTSCALE
 40
1.0
  9
$OSMODE
 70
         0
  9
$ATTMODE
 70
         1
  9
$TEXTSIZE
 40
0.2
  9
$TRACEWID
 40
0.05
  9
$TEXTSTYLE
  7
STANDARD
  9
$CLAYER
  8
0
  9
$CELTYPE
  6
CONTINUOUS
  9
$CECOLOR
 62
       256
  9
$DIMSCALE
 40
1.0
  9
$DIMASZ
 40
0.18
  9
$DIMEXO
 40
0.0625
  9
$DIMDLI
 40
0.38
  9
$DIMRND
 40
0.0
  9
$DIMDLE
 40
0.0
  9
$DIMEXE
 40
0.18
  9
$DIMTP
 40
0.0
  9
$DIMTM
 40
0.0
  9
$DIMTXT
 40
0.18
  9
$DIMCEN
 40
0.09
  9
$DIMTSZ
 40
0.0
  9
$DIMTOL
 70
         0
  9
$DIMLIM
 70
         0
  9
$DIMTIH
 70
         1
  9
$DIMTOH
 70
         1
  9
$DIMSE1
 70
         0
  9
$DIMSE2
 70
         0
  9
$DIMTAD
 70
         0
  9
$DIMZIN
 70
         0
  9
$DIMBLK
  1

  9
$DIMASO
 70
         1
  9
$DIMSHO
 70
         1
  9
$DIMPOST
  1

  9
$DIMAPOST
  1

  9
$DIMALT
 70
         0
  9
$DIMALTD
 70
         2
  9
$DIMALTF
 40
25.4
  9
$DIMLFAC
 40
1.0
  9
$DIMTOFL
 70
         0
  9
$DIMTVP
 40
0.0
  9
$DIMTIX
 70
         0
  9
$DIMSOXD
 70
         0
  9
$DIMSAH
 70
         0
  9
$DIMBLK1
  1

  9
$DIMBLK2
  1

  9
$DIMSTYLE
  2
STANDARD
  9
$DIMCLRD
 70
         0
  9
$DIMCLRE
 70
         0
  9
$DIMCLRT
 70
         0
  9
$DIMTFAC
 40
1.0
  9
$DIMGAP
 40
0.09
  9
$LUNITS
 70
         2
  9
$LUPREC
 70
         4
  9
$AXISMODE
 70
         0
  9
$AXISUNIT
 10
0.0
 20
0.0
  9
$SKETCHINC
 40
0.1
  9
$FILLETRAD
 40
0.0
  9
$AUNITS
 70
         0
  9
$AUPREC
 70
         0
  9
$MENU
  1
acad
  9
$ELEVATION
 40
0.0
  9
$PELEVATION
 40
0.0
  9
$THICKNESS
 40
0.0
  9
$LIMCHECK
 70
         0
  9
$BLIPMODE
 70
         1
  9
$CHAMFERA
 40
0.0
  9
$CHAMFERB
 40
0.0
  9
$SKPOLY
 70
         0
  9
$TDCREATE
 40
0.000000000
  9
$TDUPDATE
 40
0.000000000
  9
$TDINDWG
 40
0.0000000000
  9
$TDUSRTIMER
 40
0.0000000000
  9
$USRTIMER
 70
         1
  9
$ANGBASE
 50
0.0
  9
$ANGDIR
 70
         0
  9
$PDMODE
 70
         3
  9
$PDSIZE
 40
-1.0
  9
$PLINEWID
 40
0.0
  9
$COORDS
 70
         0
  9
$SPLFRAME
 70
         0
  9
$SPLINETYPE
 70
         6
  9
$SPLINESEGS
 70
         8
  9
$ATTDIA
 70
         0
  9
$ATTREQ
 70
         1
  9
$HANDLING
 70
         1
  9
$HANDSEED
  5
113
  9
$SURFTAB1
 70
         6
  9
$SURFTAB2
 70
         6
  9
$SURFTYPE
 70
         6
  9
$SURFU
 70
         6
  9
$SURFV
 70
         6
  9
$UCSNAME
  2

  9
$UCSORG
 10
0.0
 20
0.0
 30
0.0
  9
$UCSXDIR
 10
1.0
 20
0.0
 30
0.0
  9
$UCSYDIR
 10
0.0
 20
1.0
 30
0.0
  9
$PUCSNAME
  2

  9
$PUCSORG
 10
0.0
 20
0.0
 30
0.0
  9
$PUCSXDIR
 10
1.0
 20
0.0
 30
0.0
  9
$PUCSYDIR
 10
0.0
 20
1.0
 30
0.0
  9
$USERI1
 70
         0
  9
$USERI2
 70
         0
  9
$USERI3
 70
         0
  9
$USERI4
 70
         0
  9
$USERI5
 70
         0
  9
$USERR1
 40
0.0
  9
$USERR2
 40
0.0
  9
$USERR3
 40
0.0
  9
$USERR4
 40
0.0
  9
$USERR5
 40
0.0
  9
$WORLDVIEW
 70
         1
  9
$SHADEDGE
 70
         3
  9
$SHADEDIF
 70
        70
  9
$TILEMODE
 70
         1
  9
$MAXACTVP
 70
        16
  9
$PINSBASE
 10
0.0
 20
0.0
 30
0.0
  9
$PLIMCHECK
 70
         0
  9
$PEXTMIN
 10
1.0000000000E+20
 20
1.0000000000E+20
 30
1.0000000000E+20
  9
$PEXTMAX
 10
-1.0000000000E+20
 20
-1.0000000000E+20
 30
-1.0000000000E+20
  9
$PLIMMIN
 10
0.0
 20
0.0
  9
$PLIMMAX
 10
12.0
 20
9.0
  9
$UNITMODE
 70
         0
  9
$VISRETAIN
 70
         0
  9
$PLINEGEN
 70
         1
  9
$PSLTSCALE
 70
         0
  9
$TREEDEPTH
 70
      3020
  9
$DWGCODEPAGE
  3
ansi_932
  0
ENDSEC
  0
SECTION
  2
TABLES
  0
TABLE
  2
VPORT
 70
         1
  0
VPORT
  2
*ACTIVE
 70
         0
 10
0.0
 20
0.0
 11
1.0
 21
1.0
 12
6.591288
 22
4.579184
 13
0.0
 23
0.0
 14
1.0
 24
1.0
 15
0.0
 25
0.0
 16
0.0
 26
0.0
 36
1.0
 17
0.0
 27
0.0
 37
0.0
 40
9.158369
 41
0.688564
 42
50.0
 43
0.0
 44
0.0
 50
0.0
 51
0.0
 71
         0
 72
       100
 73
         1
 74
         1
 75
         0
 76
         0
 77
         0
 78
         0
  0
ENDTAB
  0
TABLE
  2
LTYPE
 70
        11
  0
LTYPE
  2
CONTINUOUS
 70
        64
  3
Solid line
 72
        65
 73
         0
 40
0.0
  0
LTYPE
  2
DOT
 70
        64
  3
. . . . . . . . 
 72
        65
 73
         2
 40
1.0
 49
0.0
 49
-1.0
  0
LTYPE
  2
DASHED
 70
        64
  3
___  ___  ___  ___  
 72
        65
 73
         2
 40
4.0
 49
3.0
 49
-1.0
  0
LTYPE
  2
HIDDEN
 70
        64
  3
__ __ __ __ 
 72
        65
 73
         2
 40
3.0
 49
2.0
 49
-1.0
  0
LTYPE
  2
STITCH
 70
        64
  3
_ _ _ _ 
 72
        65
 73
         2
 40
2.0
 49
1.0
 49
-1.0
  0
LTYPE
  2
CENTER
 70
        64
  3
______  __  ______  __  
 72
        65
 73
         4
 40
43.0
 49
40.0
 49
-1.0
 49
1.0
 49
-1.0
  0
LTYPE
  2
DASHDOT
 70
        64
  3
____ . ____ . 
 72
        65
 73
         4
 40
32.0
 49
30.0
 49
-1.0
 49
0.0
 49
-1.0
  0
LTYPE
  2
BORDER
 70
        64
  3
__ . __ . 
 72
        65
 73
         4
 40
22.0
 49
20.0
 49
-1.0
 49
0.0
 49
-1.0
  0
LTYPE
  2
CUTTING
 70
        64
  3
________   ___   ___   
 72
        65
 73
         6
 40
45.0
 49
40.0
 49
-1.0
 49
1.0
 49
-1.0
 49
1.0
 49
-1.0
  0
LTYPE
  2
PHANTOM
 70
        64
  3
______  __  __  
 72
        65
 73
         6
 40
35.0
 49
30.0
 49
-1.0
 49
1.0
 49
-1.0
 49
1.0
 49
-1.0
  0
LTYPE
  2
DIVIDE
 70
        64
  3
____ . . ____ . . 
 72
        65
 73
         6
 40
23.0
 49
20.0
 49
-1.0
 49
0.0
 49
-1.0
 49
0.0
 49
-1.0
  0
ENDTAB
  0
TABLE
  2
LAYER
 70
         3
  0
LAYER
  2
0
 70
         0
 62
         7
  6
CONTINUOUS
  0
LAYER
  2
寸法線
 70
         0
 62
         7
  6
CONTINUOUS
  0
LAYER
  2
ﾚｲﾔｰ1
 70
         0
 62
         7
  6
CONTINUOUS
  0
ENDTAB
  0
TABLE
  2
STYLE
 70
         1
  0
STYLE
  2
STANDARD
 70
         0
 40
0.0
 41
1.0
 50
0.0
 71
         0
 42
0.0
  3
txt
  4
extfont
  0
ENDTAB
  0
TABLE
  2
VIEW
 70
         0
  0
ENDTAB
  0
TABLE
  2
UCS
 70
         0
  0
ENDTAB
  0
TABLE
  2
APPID
 70
         1
  0
APPID
  2
ACAD
 70
         0
  0
ENDTAB
  0
TABLE
  2
DIMSTYLE
 70
         4
  0
DIMSTYLE
  2
STANDARD
 70
         0
  3

  4

  5

  6

  7

 40
1.0
 41
0.18
 42
0.0625
 43
0.38
 44
0.18
 45
0.0
 46
0.0
 47
0.0
 48
0.0
 71
         0
 72
         0
 73
         1
 74
         1
 75
         0
 76
         0
 77
         0
 78
         0
140
0.18
141
0.09
142
0.0
143
25.4
144
1.0
145
0.0
146
1.0
147
0.09
170
         0
171
         2
172
         0
173
         0
174
         0
175
         0
176
         0
177
         0
178
         0
  0
DIMSTYLE
  2
VELDIM0
 70
         0
  3

  4

  5

  6

  7

 40
1.0
 41
3.0
 42
0.0625
 43
0.38
 44
2.0
 45
0.0
 46
5.0
 47
0.0
 48
0.0
 71
         0
 72
         0
 73
         0
 74
         0
 75
         0
 76
         0
 77
         0
 78
         8
140
2.6987499595
141
0.09
142
0.0
143
25.4
144
1.0
145
0.0
146
1.0
147
0.09
170
         0
171
         2
172
         0
173
         0
174
         0
175
         0
176
         0
177
         0
178
         0
  0
DIMSTYLE
  2
VELDIM1
 70
         0
  3

  4

  5

  6

  7

 40
1.0
 41
3.0
 42
0.0625
 43
0.38
 44
1.25
 45
0.0
 46
5.0
 47
0.0
 48
0.0
 71
         0
 72
         0
 73
         0
 74
         0
 75
         0
 76
         0
 77
         0
 78
         8
140
2.6987499595
141
0.09
142
0.0
143
25.4
144
1.0
145
0.0
146
1.0
147
0.09
170
         0
171
         2
172
         0
173
         0
174
         0
175
         0
176
         0
177
         0
178
         0
  0
DIMSTYLE
  2
VELDIM2
 70
         0
  3

  4

  5

  6

  7

 40
1.0
 41
3.0
 42
0.0625
 43
0.38
 44
1.25
 45
0.0
 46
5.0
 47
0.0
 48
0.0
 71
         0
 72
         0
 73
         0
 74
         0
 75
         0
 76
         0
 77
         0
 78
         8
140
2.6987499595
141
0.09
142
0.0
143
25.4
144
1.0
145
0.0
146
1.0
147
0.09
170
         0
171
         2
172
         0
173
         0
174
         0
175
         0
176
         0
177
         0
178
         0
  0
ENDTAB
  0
ENDSEC
  0
SECTION
  2
BLOCKS
  0
BLOCK
  8
0
  5
29
  2
*D0
 70
         1
 10
0.0
 20
0.0
 30
0.0
  3

  0
TEXT
  8
0
 62
         0
  5
2A
 10
-140.4762499928
 20
63.1862069163
 30
0.0
 40
2.6987499595
  1
31
 50
90.0
  0
LINE
  8
0
 62
         0
  5
2B
 10
-129.0
 20
80.0
 30
0.0
 11
-141.0
 21
80.0
 31
0.0
  0
LINE
  8
0
 62
         0
  5
2C
 10
-129.0
 20
49.0
 30
0.0
 11
-141.0
 21
49.0
 31
0.0
  0
LINE
  8
0
 62
         0
  5
2D
 10
-139.0
 20
80.0
 30
0.0
 11
-139.0
 21
67.4012930599
 31
0.0
  0
LINE
  8
0
 62
         0
  5
2E
 10
-139.0
 20
49.0
 30
0.0
 11
-139.0
 21
67.4012930599
 31
0.0
  0
LINE
  8
0
 62
         0
  5
2F
 10
-139.0
 20
80.0
 30
0.0
 11
-139.0
 21
61.5987069401
 31
0.0
  0
LINE
  8
0
 62
         0
  5
30
 10
-139.0
 20
49.0
 30
0.0
 11
-139.0
 21
61.5987069401
 31
0.0
  0
LINE
  8
0
 62
         0
  5
31
 10
-139.0
 20
49.0
 30
0.0
 11
-139.0
 21
54.0
 31
0.0
  0
LINE
  8
0
 62
         0
  5
32
 10
-139.8054999709
 20
52.0
 30
0.0
 11
-139.0
 21
49.0
 31
0.0
  0
LINE
  8
0
 62
         0
  5
33
 10
-139.0
 20
49.0
 30
0.0
 11
-138.1945000291
 21
52.0
 31
0.0
  0
LINE
  8
0
 62
         0
  5
34
 10
-139.0
 20
80.0
 30
0.0
 11
-139.0
 21
75.0
 31
0.0
  0
LINE
  8
0
 62
         0
  5
35
 10
-138.1945000291
 20
77.0
 30
0.0
 11
-139.0
 21
80.0
 31
0.0
  0
LINE
  8
0
 62
         0
  5
36
 10
-139.0
 20
80.0
 30
0.0
 11
-139.8054999709
 21
77.0
 31
0.0
  0
ENDBLK
  8
0
  5
37
  0
BLOCK
  8
0
  5
3C
  2
*D1
 70
         1
 10
0.0
 20
0.0
 30
0.0
  3

  0
TEXT
  8
0
 62
         0
  5
3D
 10
-105.2805072513
 20
51.358814324
 30
0.0
 40
2.6987499595
  1
%%c 6
 50
30.0
  0
LINE
  8
0
 62
         0
  5
3E
 10
-118.4019237886
 20
42.5
 30
0.0
 11
-99.0833987549
 21
53.6535556286
 31
0.0
  0
LINE
  8
0
 62
         0
  5
3F
 10
-116.2065975627
 20
44.6975834376
 30
0.0
 11
-118.4019237886
 21
42.5
 31
0.0
  0
LINE
  8
0
 62
         0
  5
40
 10
-118.4019237886
 20
42.5
 30
0.0
 11
-115.4010975918
 21
43.3024165624
 31
0.0
  0
ENDBLK
  8
0
  5
41
  0
BLOCK
  8
0
  5
47
  2
*D2
 70
         1
 10
0.0
 20
0.0
 30
0.0
  3

  0
TEXT
  8
0
 62
         0
  5
48
 10
137.5237500072
 20
-33.6842672311
 30
0.0
 40
2.6987499595
  1
8
 50
90.0
  0
LINE
  8
0
 62
         0
  5
49
 10
129.0
 20
-37.0
 30
0.0
 11
141.0
 21
-37.0
 31
0.0
  0
LINE
  8
0
 62
         0
  5
4A
 10
129.0
 20
-29.0
 30
0.0
 11
141.0
 21
-29.0
 31
0.0
  0
LINE
  8
0
 62
         0
  5
4B
 10
139.0
 20
-37.0
 30
0.0
 11
139.0
 21
-30.7282327927
 31
0.0
  0
LINE
  8
0
 62
         0
  5
4C
 10
139.0
 20
-29.0
 30
0.0
 11
139.0
 21
-30.7282327927
 31
0.0
  0
LINE
  8
0
 62
         0
  5
4D
 10
139.0
 20
-37.0
 30
0.0
 11
139.0
 21
-35.2717672073
 31
0.0
  0
LINE
  8
0
 62
         0
  5
4E
 10
139.0
 20
-29.0
 30
0.0
 11
139.0
 21
-35.2717672073
 31
0.0
  0
LINE
  8
0
 62
         0
  5
4F
 10
139.0
 20
-29.0
 30
0.0
 11
139.0
 21
-24.0
 31
0.0
  0
LINE
  8
0
 62
         0
  5
50
 10
138.1945000291
 20
-26.0
 30
0.0
 11
139.0
 21
-29.0
 31
0.0
  0
LINE
  8
0
 62
         0
  5
51
 10
139.0
 20
-29.0
 30
0.0
 11
139.8054999709
 21
-26.0
 31
0.0
  0
LINE
  8
0
 62
         0
  5
52
 10
139.0
 20
-37.0
 30
0.0
 11
139.0
 21
-42.0
 31
0.0
  0
LINE
  8
0
 62
         0
  5
53
 10
139.8054999709
 20
-40.0
 30
0.0
 11
139.0
 21
-37.0
 31
0.0
  0
LINE
  8
0
 62
         0
  5
54
 10
139.0
 20
-37.0
 30
0.0
 11
138.1945000291
 21
-40.0
 31
0.0
  0
ENDBLK
  8
0
  5
55
  0
BLOCK
  8
0
  5
5C
  2
*D3
 70
         1
 10
0.0
 20
0.0
 30
0.0
  3

  0
TEXT
  8
0
 62
         0
  5
5D
 10
109.7093234145
 20
-108.1377786169
 30
0.0
 40
2.6987499595
  1
%%c 280
 50
315.0
  0
LINE
  8
0
 62
         0
  5
5E
 10
98.9949493661
 20
-98.9949493661
 30
0.0
 11
116.0071150048
 21
-116.0071150048
 31
0.0
  0
LINE
  8
0
 62
         0
  5
5F
 10
101.6858442014
 20
-100.546695218
 30
0.0
 11
98.9949493661
 21
-98.9949493661
 31
0.0
  0
LINE
  8
0
 62
         0
  5
60
 10
98.9949493661
 20
-98.9949493661
 30
0.0
 11
100.546695218
 21
-101.6858442014
 31
0.0
  0
ENDBLK
  8
0
  5
61
  0
BLOCK
  8
0
  5
64
  2
*D4
 70
         1
 10
0.0
 20
0.0
 30
0.0
  3

  0
TEXT
  8
0
 62
         0
  5
65
 10
12.5028055924
 20
14.07435039
 30
0.0
 40
2.6987499595
  1
%%c 6
 50
45.0
  0
LINE
  8
0
 62
         0
  5
66
 10
2.1213203436
 20
2.1213203436
 30
0.0
 11
17.8948299841
 21
17.8948299841
 31
0.0
  0
LINE
  8
0
 62
         0
  5
67
 10
3.6730661954
 20
4.8122151788
 30
0.0
 11
2.1213203436
 21
2.1213203436
 31
0.0
  0
LINE
  8
0
 62
         0
  5
68
 10
2.1213203436
 20
2.1213203436
 30
0.0
 11
4.8122151788
 21
3.6730661954
 31
0.0
  0
ENDBLK
  8
0
  5
69
  0
BLOCK
  8
0
  5
6C
  2
*D5
 70
         1
 10
0.0
 20
0.0
 30
0.0
  3

  0
TEXT
  8
0
 62
         0
  5
6D
 10
137.5237500072
 20
44.3157327689
 30
0.0
 40
2.6987499595
  1
8
 50
90.0
  0
LINE
  8
0
 62
         0
  5
6E
 10
129.0
 20
41.0
 30
0.0
 11
141.0
 21
41.0
 31
0.0
  0
LINE
  8
0
 62
         0
  5
6F
 10
129.0
 20
49.0
 30
0.0
 11
141.0
 21
49.0
 31
0.0
  0
LINE
  8
0
 62
         0
  5
70
 10
139.0
 20
41.0
 30
0.0
 11
139.0
 21
47.2717672073
 31
0.0
  0
LINE
  8
0
 62
         0
  5
71
 10
139.0
 20
49.0
 30
0.0
 11
139.0
 21
47.2717672073
 31
0.0
  0
LINE
  8
0
 62
         0
  5
72
 10
139.0
 20
41.0
 30
0.0
 11
139.0
 21
42.7282327927
 31
0.0
  0
LINE
  8
0
 62
         0
  5
73
 10
139.0
 20
49.0
 30
0.0
 11
139.0
 21
42.7282327927
 31
0.0
  0
LINE
  8
0
 62
         0
  5
74
 10
139.0
 20
49.0
 30
0.0
 11
139.0
 21
54.0
 31
0.0
  0
LINE
  8
0
 62
         0
  5
75
 10
138.1945000291
 20
52.0
 30
0.0
 11
139.0
 21
49.0
 31
0.0
  0
LINE
  8
0
 62
         0
  5
76
 10
139.0
 20
49.0
 30
0.0
 11
139.8054999709
 21
52.0
 31
0.0
  0
LINE
  8
0
 62
         0
  5
77
 10
139.0
 20
41.0
 30
0.0
 11
139.0
 21
36.0
 31
0.0
  0
LINE
  8
0
 62
         0
  5
78
 10
139.8054999709
 20
38.0
 30
0.0
 11
139.0
 21
41.0
 31
0.0
  0
LINE
  8
0
 62
         0
  5
79
 10
139.0
 20
41.0
 30
0.0
 11
138.1945000291
 21
38.0
 31
0.0
  0
ENDBLK
  8
0
  5
7A
  0
BLOCK
  8
0
  5
7D
  2
*D6
 70
         1
 10
0.0
 20
0.0
 30
0.0
  3

  0
TEXT
  8
0
 62
         0
  5
7E
 10
124.3157327689
 20
60.4762499928
 30
0.0
 40
2.6987499595
  1
8
  0
LINE
  8
0
 62
         0
  5
7F
 10
129.0
 20
49.0
 30
0.0
 11
129.0
 21
61.0
 31
0.0
  0
LINE
  8
0
 62
         0
  5
80
 10
121.0
 20
49.0
 30
0.0
 11
121.0
 21
61.0
 31
0.0
  0
LINE
  8
0
 62
         0
  5
81
 10
129.0
 20
59.0
 30
0.0
 11
127.2717672073
 21
59.0
 31
0.0
  0
LINE
  8
0
 62
         0
  5
82
 10
121.0
 20
59.0
 30
0.0
 11
127.2717672073
 21
59.0
 31
0.0
  0
LINE
  8
0
 62
         0
  5
83
 10
129.0
 20
59.0
 30
0.0
 11
122.7282327927
 21
59.0
 31
0.0
  0
LINE
  8
0
 62
         0
  5
84
 10
121.0
 20
59.0
 30
0.0
 11
122.7282327927
 21
59.0
 31
0.0
  0
LINE
  8
0
 62
         0
  5
85
 10
121.0
 20
59.0
 30
0.0
 11
116.0
 21
59.0
 31
0.0
  0
LINE
  8
0
 62
         0
  5
86
 10
118.0
 20
58.1945000291
 30
0.0
 11
121.0
 21
59.0
 31
0.0
  0
LINE
  8
0
 62
         0
  5
87
 10
121.0
 20
59.0
 30
0.0
 11
118.0
 21
59.8054999709
 31
0.0
  0
LINE
  8
0
 62
         0
  5
88
 10
129.0
 20
59.0
 30
0.0
 11
134.0
 21
59.0
 31
0.0
  0
LINE
  8
0
 62
         0
  5
89
 10
132.0
 20
59.8054999709
 30
0.0
 11
129.0
 21
59.0
 31
0.0
  0
LINE
  8
0
 62
         0
  5
8A
 10
129.0
 20
59.0
 30
0.0
 11
132.0
 21
58.1945000291
 31
0.0
  0
ENDBLK
  8
0
  5
8B
  0
BLOCK
  8
0
  5
8F
  2
*D7
 70
         1
 10
0.0
 20
0.0
 30
0.0
  3

  0
TEXT
  8
0
 62
         0
  5
90
 10
65.7113717457
 20
67.2829165433
 30
0.0
 40
2.6987499595
  1
%%c 160
 50
45.0
  0
LINE
  8
0
 62
         0
  5
91
 10
56.5685424949
 20
56.5685424949
 30
0.0
 11
73.5807081336
 21
73.5807081336
 31
0.0
  0
LINE
  8
0
 62
         0
  5
92
 10
58.1202883468
 20
59.2594373302
 30
0.0
 11
56.5685424949
 21
56.5685424949
 31
0.0
  0
LINE
  8
0
 62
         0
  5
93
 10
56.5685424949
 20
56.5685424949
 30
0.0
 11
59.2594373302
 21
58.1202883468
 31
0.0
  0
ENDBLK
  8
0
  5
94
  0
BLOCK
  8
0
  5
9A
  2
*D8
 70
         1
 10
0.0
 20
0.0
 30
0.0
  3

  0
TEXT
  8
0
 62
         0
  5
9B
 10
-2.4086206535
 20
91.4762499928
 30
0.0
 40
2.6987499595
  1
160
  0
LINE
  8
0
 62
         0
  5
9C
 10
80.0
 20
80.0
 30
0.0
 11
80.0
 21
92.0
 31
0.0
  0
LINE
  8
0
 62
         0
  5
9D
 10
-80.0
 20
80.0
 30
0.0
 11
-80.0
 21
92.0
 31
0.0
  0
LINE
  8
0
 62
         0
  5
9E
 10
80.0
 20
90.0
 30
0.0
 11
3.9961206296
 21
90.0
 31
0.0
  0
LINE
  8
0
 62
         0
  5
9F
 10
-80.0
 20
90.0
 30
0.0
 11
3.9961206296
 21
90.0
 31
0.0
  0
LINE
  8
0
 62
         0
  5
A0
 10
80.0
 20
90.0
 30
0.0
 11
-3.9961206296
 21
90.0
 31
0.0
  0
LINE
  8
0
 62
         0
  5
A1
 10
-80.0
 20
90.0
 30
0.0
 11
-3.9961206296
 21
90.0
 31
0.0
  0
LINE
  8
0
 62
         0
  5
A2
 10
-80.0
 20
90.0
 30
0.0
 11
-75.0
 21
90.0
 31
0.0
  0
LINE
  8
0
 62
         0
  5
A3
 10
-77.0
 20
90.8054999709
 30
0.0
 11
-80.0
 21
90.0
 31
0.0
  0
LINE
  8
0
 62
         0
  5
A4
 10
-80.0
 20
90.0
 30
0.0
 11
-77.0
 21
89.1945000291
 31
0.0
  0
LINE
  8
0
 62
         0
  5
A5
 10
80.0
 20
90.0
 30
0.0
 11
75.0
 21
90.0
 31
0.0
  0
LINE
  8
0
 62
         0
  5
A6
 10
77.0
 20
89.1945000291
 30
0.0
 11
80.0
 21
90.0
 31
0.0
  0
LINE
  8
0
 62
         0
  5
A7
 10
80.0
 20
90.0
 30
0.0
 11
77.0
 21
90.8054999709
 31
0.0
  0
ENDBLK
  8
0
  5
A8
  0
BLOCK
  8
0
  5
AB
  2
*D9
 70
         1
 10
0.0
 20
0.0
 30
0.0
  3

  0
TEXT
  8
0
 62
         0
  5
AC
 10
-2.4359913427
 20
104.2668749928
 30
0.0
 40
2.6987499595
  1
258
  0
LINE
  8
0
 62
         0
  5
AD
 10
129.0
 20
80.0
 30
0.0
 11
129.0
 21
104.790625
 31
0.0
  0
LINE
  8
0
 62
         0
  5
AE
 10
-129.0
 20
80.0
 30
0.0
 11
-129.0
 21
104.790625
 31
0.0
  0
LINE
  8
0
 62
         0
  5
AF
 10
129.0
 20
102.790625
 30
0.0
 11
4.0234913189
 21
102.790625
 31
0.0
  0
LINE
  8
0
 62
         0
  5
B0
 10
-129.0
 20
102.790625
 30
0.0
 11
4.0234913189
 21
102.790625
 31
0.0
  0
LINE
  8
0
 62
         0
  5
B1
 10
129.0
 20
102.790625
 30
0.0
 11
-4.0234913189
 21
102.790625
 31
0.0
  0
LINE
  8
0
 62
         0
  5
B2
 10
-129.0
 20
102.790625
 30
0.0
 11
-4.0234913189
 21
102.790625
 31
0.0
  0
LINE
  8
0
 62
         0
  5
B3
 10
-129.0
 20
102.790625
 30
0.0
 11
-124.0
 21
102.790625
 31
0.0
  0
LINE
  8
0
 62
         0
  5
B4
 10
-126.0
 20
103.5961249709
 30
0.0
 11
-129.0
 21
102.790625
 31
0.0
  0
LINE
  8
0
 62
         0
  5
B5
 10
-129.0
 20
102.790625
 30
0.0
 11
-126.0
 21
101.9851250291
 31
0.0
  0
LINE
  8
0
 62
         0
  5
B6
 10
129.0
 20
102.790625
 30
0.0
 11
124.0
 21
102.790625
 31
0.0
  0
LINE
  8
0
 62
         0
  5
B7
 10
126.0
 20
101.9851250291
 30
0.0
 11
129.0
 21
102.790625
 31
0.0
  0
LINE
  8
0
 62
         0
  5
B8
 10
129.0
 20
102.790625
 30
0.0
 11
126.0
 21
103.5961249709
 31
0.0
  0
ENDBLK
  8
0
  5
B9
  0
BLOCK
  8
0
  5
C5
  2
*D10
 70
         1
 10
0.0
 20
0.0
 30
0.0
  3

  0
TEXT
  8
0
 62
         0
  5
C6
 10
-140.4762499928
 20
4.4672414023
 30
0.0
 40
2.6987499595
  1
86
 50
90.0
  0
LINE
  8
0
 62
         0
  5
C7
 10
-129.0
 20
49.0
 30
0.0
 11
-141.0
 21
49.0
 31
0.0
  0
LINE
  8
0
 62
         0
  5
C8
 10
-129.0
 20
-37.0
 30
0.0
 11
-141.0
 21
-37.0
 31
0.0
  0
LINE
  8
0
 62
         0
  5
C9
 10
-139.0
 20
49.0
 30
0.0
 11
-139.0
 21
9.1202585738
 31
0.0
  0
LINE
  8
0
 62
         0
  5
CA
 10
-139.0
 20
-37.0
 30
0.0
 11
-139.0
 21
9.1202585738
 31
0.0
  0
LINE
  8
0
 62
         0
  5
CB
 10
-139.0
 20
49.0
 30
0.0
 11
-139.0
 21
2.8797414262
 31
0.0
  0
LINE
  8
0
 62
         0
  5
CC
 10
-139.0
 20
-37.0
 30
0.0
 11
-139.0
 21
2.8797414262
 31
0.0
  0
LINE
  8
0
 62
         0
  5
CD
 10
-139.0
 20
-37.0
 30
0.0
 11
-139.0
 21
-32.0
 31
0.0
  0
LINE
  8
0
 62
         0
  5
CE
 10
-139.8054999709
 20
-34.0
 30
0.0
 11
-139.0
 21
-37.0
 31
0.0
  0
LINE
  8
0
 62
         0
  5
CF
 10
-139.0
 20
-37.0
 30
0.0
 11
-138.1945000291
 21
-34.0
 31
0.0
  0
LINE
  8
0
 62
         0
  5
D0
 10
-139.0
 20
49.0
 30
0.0
 11
-139.0
 21
44.0
 31
0.0
  0
LINE
  8
0
 62
         0
  5
D1
 10
-138.1945000291
 20
46.0
 30
0.0
 11
-139.0
 21
49.0
 31
0.0
  0
LINE
  8
0
 62
         0
  5
D2
 10
-139.0
 20
49.0
 30
0.0
 11
-139.8054999709
 21
46.0
 31
0.0
  0
ENDBLK
  8
0
  5
D3
  0
BLOCK
  8
0
  5
D6
  2
*D11
 70
         1
 10
0.0
 20
0.0
 30
0.0
  3

  0
TEXT
  8
0
 62
         0
  5
D7
 10
-152.4210416595
 20
-2.4086206535
 30
0.0
 40
2.6987499595
  1
160
 50
90.0
  0
LINE
  8
0
 62
         0
  5
D8
 10
-129.0
 20
80.0
 30
0.0
 11
-152.9447916667
 21
80.0
 31
0.0
  0
LINE
  8
0
 62
         0
  5
D9
 10
-129.0
 20
-80.0
 30
0.0
 11
-152.9447916667
 21
-80.0
 31
0.0
  0
LINE
  8
0
 62
         0
  5
DA
 10
-150.9447916667
 20
80.0
 30
0.0
 11
-150.9447916667
 21
3.9961206296
 31
0.0
  0
LINE
  8
0
 62
         0
  5
DB
 10
-150.9447916667
 20
-80.0
 30
0.0
 11
-150.9447916667
 21
3.9961206296
 31
0.0
  0
LINE
  8
0
 62
         0
  5
DC
 10
-150.9447916667
 20
80.0
 30
0.0
 11
-150.9447916667
 21
-3.9961206296
 31
0.0
  0
LINE
  8
0
 62
         0
  5
DD
 10
-150.9447916667
 20
-80.0
 30
0.0
 11
-150.9447916667
 21
-3.9961206296
 31
0.0
  0
LINE
  8
0
 62
         0
  5
DE
 10
-150.9447916667
 20
-80.0
 30
0.0
 11
-150.9447916667
 21
-75.0
 31
0.0
  0
LINE
  8
0
 62
         0
  5
DF
 10
-151.7502916376
 20
-77.0
 30
0.0
 11
-150.9447916667
 21
-80.0
 31
0.0
  0
LINE
  8
0
 62
         0
  5
E0
 10
-150.9447916667
 20
-80.0
 30
0.0
 11
-150.1392916958
 21
-77.0
 31
0.0
  0
LINE
  8
0
 62
         0
  5
E1
 10
-150.9447916667
 20
80.0
 30
0.0
 11
-150.9447916667
 21
75.0
 31
0.0
  0
LINE
  8
0
 62
         0
  5
E2
 10
-150.1392916958
 20
77.0
 30
0.0
 11
-150.9447916667
 21
80.0
 31
0.0
  0
LINE
  8
0
 62
         0
  5
E3
 10
-150.9447916667
 20
80.0
 30
0.0
 11
-151.7502916376
 21
77.0
 31
0.0
  0
ENDBLK
  8
0
  5
E4
  0
BLOCK
  8
0
  5
EA
  2
*D12
 70
         1
 10
0.0
 20
0.0
 30
0.0
  3

  0
TEXT
  8
0
 62
         0
  5
EB
 10
101.5237500072
 20
4.4672414023
 30
0.0
 40
2.6987499595
  1
70
 50
90.0
  0
LINE
  8
0
 62
         0
  5
EC
 10
113.0
 20
41.0
 30
0.0
 11
101.0
 21
41.0
 31
0.0
  0
LINE
  8
0
 62
         0
  5
ED
 10
113.0
 20
-29.0
 30
0.0
 11
101.0
 21
-29.0
 31
0.0
  0
LINE
  8
0
 62
         0
  5
EE
 10
103.0
 20
41.0
 30
0.0
 11
103.0
 21
9.1202585738
 31
0.0
  0
LINE
  8
0
 62
         0
  5
EF
 10
103.0
 20
-29.0
 30
0.0
 11
103.0
 21
9.1202585738
 31
0.0
  0
LINE
  8
0
 62
         0
  5
F0
 10
103.0
 20
41.0
 30
0.0
 11
103.0
 21
2.8797414262
 31
0.0
  0
LINE
  8
0
 62
         0
  5
F1
 10
103.0
 20
-29.0
 30
0.0
 11
103.0
 21
2.8797414262
 31
0.0
  0
LINE
  8
0
 62
         0
  5
F2
 10
103.0
 20
-29.0
 30
0.0
 11
103.0
 21
-24.0
 31
0.0
  0
LINE
  8
0
 62
         0
  5
F3
 10
102.1945000291
 20
-26.0
 30
0.0
 11
103.0
 21
-29.0
 31
0.0
  0
LINE
  8
0
 62
         0
  5
F4
 10
103.0
 20
-29.0
 30
0.0
 11
103.8054999709
 21
-26.0
 31
0.0
  0
LINE
  8
0
 62
         0
  5
F5
 10
103.0
 20
41.0
 30
0.0
 11
103.0
 21
36.0
 31
0.0
  0
LINE
  8
0
 62
         0
  5
F6
 10
103.8054999709
 20
38.0
 30
0.0
 11
103.0
 21
41.0
 31
0.0
  0
LINE
  8
0
 62
         0
  5
F7
 10
103.0
 20
41.0
 30
0.0
 11
102.1945000291
 21
38.0
 31
0.0
  0
ENDBLK
  8
0
  5
F8
  0
BLOCK
  8
0
  5
FE
  2
*D13
 70
         1
 10
0.0
 20
0.0
 30
0.0
  3

  0
TEXT
  8
0
 62
         0
  5
FF
 10
-140.4762499928
 20
-60.0327585977
 30
0.0
 40
2.6987499595
  1
43
 50
90.0
  0
LINE
  8
0
 62
         0
  5
100
 10
-129.0
 20
-37.0
 30
0.0
 11
-141.0
 21
-37.0
 31
0.0
  0
LINE
  8
0
 62
         0
  5
101
 10
-129.0
 20
-80.0
 30
0.0
 11
-141.0
 21
-80.0
 31
0.0
  0
LINE
  8
0
 62
         0
  5
102
 10
-139.0
 20
-37.0
 30
0.0
 11
-139.0
 21
-55.3797414262
 31
0.0
  0
LINE
  8
0
 62
         0
  5
103
 10
-139.0
 20
-80.0
 30
0.0
 11
-139.0
 21
-55.3797414262
 31
0.0
  0
LINE
  8
0
 62
         0
  5
104
 10
-139.0
 20
-37.0
 30
0.0
 11
-139.0
 21
-61.6202585738
 31
0.0
  0
LINE
  8
0
 62
         0
  5
105
 10
-139.0
 20
-80.0
 30
0.0
 11
-139.0
 21
-61.6202585738
 31
0.0
  0
LINE
  8
0
 62
         0
  5
106
 10
-139.0
 20
-80.0
 30
0.0
 11
-139.0
 21
-75.0
 31
0.0
  0
LINE
  8
0
 62
         0
  5
107
 10
-139.8054999709
 20
-77.0
 30
0.0
 11
-139.0
 21
-80.0
 31
0.0
  0
LINE
  8
0
 62
         0
  5
108
 10
-139.0
 20
-80.0
 30
0.0
 11
-138.1945000291
 21
-77.0
 31
0.0
  0
LINE
  8
0
 62
         0
  5
109
 10
-139.0
 20
-37.0
 30
0.0
 11
-139.0
 21
-42.0
 31
0.0
  0
LINE
  8
0
 62
         0
  5
10A
 10
-138.1945000291
 20
-40.0
 30
0.0
 11
-139.0
 21
-37.0
 31
0.0
  0
LINE
  8
0
 62
         0
  5
10B
 10
-139.0
 20
-37.0
 30
0.0
 11
-139.8054999709
 21
-40.0
 31
0.0
  0
ENDBLK
  8
0
  5
10C
  0
ENDSEC
  0
SECTION
  2
ENTITIES
  0
DIMENSION
  8
寸法線
 62
         5
  5
39
  2
*D0
 10
-139.0
 20
80.0
 30
0.0
 11
-139.0
 21
64.5
 31
0.0
 70
       128
  1
<>
 13
-129.0
 23
80.0
 33
0.0
 14
-129.0
 24
49.0
 34
0.0
 50
90.0
210
0.0
220
0.0
230
1.0
  3
VELDIM0
  0
DIMENSION
  8
0
 62
         5
  5
42
  2
*D1
 10
-123.5980762114
 20
39.5
 30
0.0
 11
-92.3791405092
 21
52.0249996185
 31
0.0
 70
       131
  1
%%c <>
 15
-118.4019237886
 25
42.5
 35
0.0
210
0.0
220
0.0
230
1.0
  3
VELDIM1
  0
LINE
  8
ﾚｲﾔｰ1
  5
44
 10
-129.0
 20
49.0
 30
0.0
 11
-80.0
 21
80.0
 31
0.0
  0
CIRCLE
  8
ﾚｲﾔｰ1
  5
45
 10
-121.0
 20
41.0
 30
0.0
 40
3.0
210
0.0
220
0.0
230
1.0
  0
DIMENSION
  8
寸法線
 62
         5
  5
56
  2
*D2
 10
139.0
 20
-37.0
 30
0.0
 11
139.0
 21
-33.0
 31
0.0
 70
       128
  1
<>
 13
129.0
 23
-37.0
 33
0.0
 14
129.0
 24
-29.0
 34
0.0
 50
90.0
210
0.0
220
0.0
230
1.0
  3
VELDIM0
  0
LINE
  8
ﾚｲﾔｰ1
  5
57
 10
129.0
 20
-37.0
 30
0.0
 11
80.0
 21
-80.0
 31
0.0
  0
LINE
  8
ﾚｲﾔｰ1
  5
58
 10
113.0
 20
-29.0
 30
0.0
 11
129.0
 21
-29.0
 31
0.0
  0
CIRCLE
  8
ﾚｲﾔｰ1
  5
59
 10
121.0
 20
-29.0
 30
0.0
 40
3.0
210
0.0
220
0.0
230
1.0
  0
DIMENSION
  8
0
 62
         5
  5
62
  2
*D3
 10
-98.9949493661
 20
98.9949493661
 30
0.0
 11
121.9903335824
 21
-112.4653330102
 31
0.0
 70
       131
  1
%%c <>
 15
98.9949493661
 25
-98.9949493661
 35
0.0
210
0.0
220
0.0
230
1.0
  3
VELDIM2
  0
DIMENSION
  8
0
 62
         5
  5
6A
  2
*D4
 10
-2.1213203436
 20
-2.1213203436
 30
0.0
 11
25.1167045599
 21
15.5917039877
 31
0.0
 70
       131
  1
%%c <>
 15
2.1213203436
 25
2.1213203436
 35
0.0
210
0.0
220
0.0
230
1.0
  3
VELDIM2
  0
DIMENSION
  8
寸法線
 62
         5
  5
7B
  2
*D5
 10
139.0
 20
41.0
 30
0.0
 11
139.0
 21
45.0
 31
0.0
 70
       128
  1
<>
 13
129.0
 23
41.0
 33
0.0
 14
129.0
 24
49.0
 34
0.0
 50
90.0
210
0.0
220
0.0
230
1.0
  3
VELDIM0
  0
DIMENSION
  8
寸法線
 62
         5
  5
8C
  2
*D6
 10
129.0
 20
59.0
 30
0.0
 11
125.0
 21
59.0
 31
0.0
 70
       128
  1
<>
 13
129.0
 23
49.0
 33
0.0
 14
121.0
 24
49.0
 34
0.0
210
0.0
220
0.0
230
1.0
  3
VELDIM0
  0
LINE
  8
ﾚｲﾔｰ1
  5
8D
 10
80.0
 20
80.0
 30
0.0
 11
129.0
 21
49.0
 31
0.0
  0
DIMENSION
  8
0
 62
         5
  5
95
  2
*D7
 10
-56.5685424949
 20
-56.5685424949
 30
0.0
 11
79.5639267112
 21
70.038926139
 31
0.0
 70
       131
  1
%%c <>
 15
56.5685424949
 25
56.5685424949
 35
0.0
210
0.0
220
0.0
230
1.0
  3
VELDIM2
  0
LINE
  8
ﾚｲﾔｰ1
  5
96
 10
113.0
 20
41.0
 30
0.0
 11
129.0
 21
41.0
 31
0.0
  0
CIRCLE
  8
ﾚｲﾔｰ1
  5
97
 10
121.0
 20
41.0
 30
0.0
 40
3.0
210
0.0
220
0.0
230
1.0
  0
LINE
  8
ﾚｲﾔｰ1
  6
BORDER
 62
         3
  5
98
 10
-129.0
 20
0.0
 30
0.0
 11
129.0
 21
0.0
 31
0.0
  0
DIMENSION
  8
寸法線
 62
         5
  5
A9
  2
*D8
 10
80.0
 20
90.0
 30
0.0
 11
0.0
 21
90.0
 31
0.0
 70
       128
  1
<>
 13
80.0
 23
80.0
 33
0.0
 14
-80.0
 24
80.0
 34
0.0
210
0.0
220
0.0
230
1.0
  3
VELDIM0
  0
DIMENSION
  8
寸法線
 62
         5
  5
BA
  2
*D9
 10
129.0
 20
102.790625
 30
0.0
 11
0.0
 21
102.790625
 31
0.0
 70
       128
  1
<>
 13
129.0
 23
80.0
 33
0.0
 14
-129.0
 24
80.0
 34
0.0
210
0.0
220
0.0
230
1.0
  3
VELDIM0
  0
CIRCLE
  8
ﾚｲﾔｰ1
  6
DOT
 62
         6
  5
BB
 10
0.0
 20
0.0
 30
0.0
 40
140.0
210
0.0
220
0.0
230
1.0
  0
LINE
  8
ﾚｲﾔｰ1
  5
BC
 10
80.0
 20
-80.0
 30
0.0
 11
-80.0
 21
-80.0
 31
0.0
  0
LINE
  8
ﾚｲﾔｰ1
  5
BD
 10
-80.0
 20
80.0
 30
0.0
 11
80.0
 21
80.0
 31
0.0
  0
LINE
  8
ﾚｲﾔｰ1
  6
BORDER
 62
         3
  5
BE
 10
0.0
 20
80.0
 30
0.0
 11
0.0
 21
-80.0
 31
0.0
  0
CIRCLE
  8
ﾚｲﾔｰ1
  6
DOT
 62
         6
  5
BF
 10
0.0
 20
0.0
 30
0.0
 40
80.0
210
0.0
220
0.0
230
1.0
  0
LINE
  8
ﾚｲﾔｰ1
  5
C0
 10
129.0
 20
-80.0
 30
0.0
 11
-129.0
 21
-80.0
 31
0.0
  0
LINE
  8
ﾚｲﾔｰ1
  5
C1
 10
-129.0
 20
80.0
 30
0.0
 11
129.0
 21
80.0
 31
0.0
  0
CIRCLE
  8
ﾚｲﾔｰ1
  5
C2
 10
0.0
 20
0.0
 30
0.0
 40
3.0
210
0.0
220
0.0
230
1.0
  0
LINE
  8
ﾚｲﾔｰ1
  5
C3
 10
-129.0
 20
-37.0
 30
0.0
 11
-129.0
 21
49.0
 31
0.0
  0
DIMENSION
  8
寸法線
 62
         5
  5
D4
  2
*D10
 10
-139.0
 20
49.0
 30
0.0
 11
-139.0
 21
6.0
 31
0.0
 70
       128
  1
<>
 13
-129.0
 23
49.0
 33
0.0
 14
-129.0
 24
-37.0
 34
0.0
 50
90.0
210
0.0
220
0.0
230
1.0
  3
VELDIM0
  0
DIMENSION
  8
寸法線
 62
         5
  5
E5
  2
*D11
 10
-150.9447916667
 20
80.0
 30
0.0
 11
-150.9447916667
 21
0.0
 31
0.0
 70
       128
  1
<>
 13
-129.0
 23
80.0
 33
0.0
 14
-129.0
 24
-80.0
 34
0.0
 50
90.0
210
0.0
220
0.0
230
1.0
  3
VELDIM0
  0
LINE
  8
ﾚｲﾔｰ1
  5
E6
 10
-129.0
 20
-37.0
 30
0.0
 11
-129.0
 21
49.0
 31
0.0
  0
LINE
  8
ﾚｲﾔｰ1
  5
E7
 10
-129.0
 20
-80.0
 30
0.0
 11
-129.0
 21
80.0
 31
0.0
  0
LINE
  8
ﾚｲﾔｰ1
  5
E8
 10
129.0
 20
49.0
 30
0.0
 11
129.0
 21
-37.0
 31
0.0
  0
DIMENSION
  8
寸法線
 62
         5
  5
F9
  2
*D12
 10
103.0
 20
41.0
 30
0.0
 11
103.0
 21
6.0
 31
0.0
 70
       128
  1
<>
 13
113.0
 23
41.0
 33
0.0
 14
113.0
 24
-29.0
 34
0.0
 50
90.0
210
0.0
220
0.0
230
1.0
  3
VELDIM0
  0
LINE
  8
ﾚｲﾔｰ1
  5
FA
 10
121.0
 20
49.0
 30
0.0
 11
121.0
 21
-37.0
 31
0.0
  0
LINE
  8
ﾚｲﾔｰ1
  5
FB
 10
129.0
 20
80.0
 30
0.0
 11
129.0
 21
-80.0
 31
0.0
  0
LINE
  8
ﾚｲﾔｰ1
  5
FC
 10
-129.0
 20
-37.0
 30
0.0
 11
-80.0
 21
-80.0
 31
0.0
  0
DIMENSION
  8
寸法線
 62
         5
  5
10D
  2
*D13
 10
-139.0
 20
-37.0
 30
0.0
 11
-139.0
 21
-58.5
 31
0.0
 70
       128
  1
<>
 13
-129.0
 23
-37.0
 33
0.0
 14
-129.0
 24
-80.0
 34
0.0
 50
90.0
210
0.0
220
0.0
230
1.0
  3
VELDIM0
  0
LINE
  8
ﾚｲﾔｰ1
  5
10E
 10
-129.0
 20
-37.0
 30
0.0
 11
-80.0
 21
-80.0
 31
0.0
  0
CIRCLE
  8
ﾚｲﾔｰ1
  5
10F
 10
-121.0
 20
-29.0
 30
0.0
 40
3.0
210
0.0
220
0.0
230
1.0
  0
LINE
  8
ﾚｲﾔｰ1
  5
110
 10
-129.0
 20
49.0
 30
0.0
 11
-80.0
 21
80.0
 31
0.0
  0
ENDSEC
  0
EOF
